天伦吧稀有资源分享论坛

马上注册,结交更多好友,享用更多功能,让你轻松玩转社区。

更多精彩图片和附件,您需要 登录 才可以下载或查看,没有帐号?点击注册

x

【中文剧名】咖啡屋
【电 视 台】SBS
【首   播】2010年5月17日
【语   言】朝鲜语
【回   数】18集
【导   演】表民洙
【编   剧】徐恩正
【演   员】姜志焕
            朴诗妍
            恩静
            李顺才
            朴载正
            金志映
            安吉康
            郑雄仁
            郑俊
            许泰熙
            陈诚
【剧情简介】
           近日,韩国男星姜志焕被敲定为电视剧《Page one》的男主角。
这将是姜志焕继2008年《快刀洪吉童》后,两年后重返电视荧屏。另外,女主角已经选定由朴诗妍来出演。《Page one》是一部浪漫喜剧,将讲述朴诗妍饰演的出版社代表通过努力在事业和爱情上取得成功的故事。
姜志焕在该剧中饰演一名畅销书的作家。在大众面前,他以知名作家的身份表现得非常有亲和力,但是私底下他却无视旁人,自我孤立,性格十分奇怪。
电视剧制作公司代表说演员姜志焕之前在电影《七级公务员》和《电影就是电影》中施展了自己精湛的演技,而且他的经纪公司纠纷问题也得到了解决,所以最终决定参与这部电视剧的演出。
该剧讲述专业人士燃烧热情火热自己和他人人生的故事。


  • General
  •     Complete name : H:MKV原创作品咖啡屋(18集全)Coffee.House.COMPLETE.2010.HDTV.720p.x264.AC3-CnSCGCoffee.House.E10.2010.720p.HDTV.x264.AC3-CnSCG.mkv
  •     Format : Matroska
  •     File size : 899 MiB
  •     Duration : 48mn 26s
  •     Overall bit rate : 2 596 Kbps
  •     Encoded date : UTC 2010-09-09 14:06:17
  •     Writing application : mkvmerge v2.2.0 ('Turn It On Again') built on Mar  4 2008 12:58:26
  •     Writing library : libebml v0.7.7 + libmatroska v0.8.1
  •   Video #1
  •     ID : 1
  •     Format : AVC
  •     Format/Info : Advanced Video Codec
  •     Format profile : High@L4.1
  •     Format settings, CABAC : Yes
  •     Format settings, ReFrames : 4 frames
  •     Muxing mode : Container profile=Unknown@4.1
  •     Codec ID : V_MPEG4/ISO/AVC
  •     Duration : 48mn 23s
  •     Bit rate : 2 160 Kbps
  •     Nominal bit rate : 2 209 Kbps
  •     Width : 1 280 pixels
  •     Height : 720 pixels
  •     Display aspect ratio : 16:9
  •     Frame rate : 29.970 fps
  •     Resolution : 8 bits
  •     Colorimetry : 4:2:0
  •     Scan type : Progressive
  •     Bits/(Pixel*Frame) : 0.078
  •     Stream size : 748 MiB (83%)
  •     Writing library : x264 core 98 r1649 c54c47d
  •   Language : English
  •   Audio #2
  •     ID : 2
  •     Format : AC-3
  •     Format/Info : Audio Coding 3
  •     Codec ID : A_AC3
  •     Duration : 48mn 26s
  •     Bit rate mode : Constant
  •     Bit rate : 384 Kbps
  •     Channel(s) : 2 channels
  •     Channel positions : L R
  •     Sampling rate : 48.0 KHz
  •     Stream size : 133 MiB (15%)
  •   Text #3
  •     ID : 3
  •     Format : SSA
  •     Codec ID : S_TEXT/SSA
  •     Codec ID/Info : Sub Station Alpha




下载地址:
游客,如果您要查看本帖隐藏内容请回复加入VIP高权限、免回复快速升级教程

21 个回复

倒序浏览
蓝衣天使
蓝衣天使  天伦大亨 | 发表于 2012-3-31 23:34:18
不知道说些什么  
aiai898
aiai898  等待验证会员 | 发表于 2012-3-31 23:45:01
呵呵,支持一下哈  
aiai898
aiai898  等待验证会员 | 发表于 2012-3-31 23:46:52
好人一生平安  
aiai898
aiai898  等待验证会员 | 发表于 2012-3-31 23:46:52
(*^__^*) 嘻嘻……  
waiwai
waiwai  天伦大亨 | 发表于 2012-4-1 00:07:41
哈哈,顶你了哦.  
aiai898
aiai898  等待验证会员 | 发表于 2012-4-1 00:07:41
没人理我。。。。  
tianya321
tianya321  限制会员 | 发表于 2012-4-1 00:24:25
看看..  
小刀
小刀  等待验证会员 | 发表于 2012-4-1 00:47:17
我毫不犹豫地把楼主的这个帖子收藏了  
蓝衣天使
蓝衣天使  天伦大亨 | 发表于 2012-4-1 00:47:17
我来了~~~~~~~~~ 闪人~~~~~~~~~~~~~~~~  
您需要登录后才可以回帖 登录 | 点击注册

本版积分规则

bigame

天伦大亨

楼主 私聊 拜访
天伦币: 4436 帖子: 4252 主题: 3484

精选推荐